开发工具 Happycasts: Octopress 安装配置

happypeter · 2012年09月10日 · 最后由 happypeter 回复于 2012年10月21日 · 6816 次阅读

http://happycasts.net/episodes/36

最近发现很多人从 wordpress 转过来啊,看来 octopress 真的很火。

另外大家看看下载灵不灵,为什么我点击“下载”,有时会被重定向到

http://117.79.168.7/media.happycasts.net/assets/episodes/videos/036-octopress.mov?y=yjwt08

然后就失败了,奇怪,我 vps 的 IP 也不是 117.79.168.7 啊?有朋友遇到过类似的情况吗?

Edit: 翻墙后就不会有这种现象了。用 whois 查看了 117.79.168.7 发现这个机器在北京。看来是我的 ISP 在搞 😠

@happypeter 没有试过下载。 你这里欢迎 episode 投稿否,从你这里这里学到很多,意识到奉献也会令人快乐

#2 楼 @feitian124

奉献也会令人快乐

+1

#2 楼 @feitian124 投稿肯定是欢迎的,不过为了让观众有良好的 "碎片一致性”的体验,happycasts 上发布视频还是有一些要求的:

  1. 1024x768 mov 格式,要求音质好
  2. 内容上暂时保持语言和框架中性,意思是暂时不接受只能在 rails & ruby 下才能用的技术
    1. 以下这些暂不接受:
      • capistrano
      • rack
      • ....
    2. 可以接受
      • Linux 下的各种工具配置:sendmail, screen, mysql, MongoDB ...
      • 各种前端技术:jquery, backbone.js, spine...

而且最好是在 ubuntu 下操作,这条可能最讨厌。如果这些你都可以接受的话,我会全力配合你的。

#2 楼 @feitian124 看了你以前的留言,如果你能做一期 ubuntu 下用 inkscape 的视频,也是很欢迎的。

好吧。我也是全 Ubuntu 工作环境。有机会还是会转到 Mac 平台。

@happypeter ok,我有空做做看,inkscape 我也是刚学,估计还难以胜任。 意向 tmux,现在用了一段时间,感觉还是挺不错的

#7 楼 @feitian124 太好了 tmux!正是 happycasts 需要的!

有问题随时联系我,我会全力配合你的。

#8 楼 @happypeter peter,是不是可以录制一些 html 基础的视频?比如 css ,bootstrap,js, js mvc , http 协议等

10 楼 已删除

@happypeter 为什么必须是 Ubuntu 呢?其他版本的 Linux 不行吗?

@happypeter 您的视频实在是精简又不失内容,我看了对我帮助蛮大,谢谢。support you

#11 楼 @semin 也可以,反正主要是命令行操作。建议把 terminal 背景调成白底黑字。

#9 楼 @chucai 这些是可以的。以后应该会录,敬请期待。

@happypeter 我的环境是 ubuntu,周末准备了下环境, record 准备用:recordMyDesktop. 但是只支持 ogv keystroke visualizer 也找到了一个。 试录了下,还在为“024x768 mov 格式,要求音质好”努力中。

@happypeter 今天录了个版本,还不错,10 分钟。只是转成 1024*768 mov 时,居然覆盖掉了,悲剧。 只好重新录一个。 怎么传给你呢,发 email 吗,10 分钟 ogv 大概 50M,不知道换成 MOV 多大。。

@happypeter 另我录好后是 1600x896 分辨率的,用 ffmpeg 转出错,学习成本不低呀,一时半会还搞不定。 ffmpeg -i out-1.ogv tmux.mov


$ ffmpeg -i out-1.ogv tmux.mov
ffmpeg version 0.8.3-4:0.8.3-0ubuntu0.12.04.1, Copyright (c) 2000-2012 the Libav developers
  built on Jun 12 2012 16:37:58 with gcc 4.6.3
*** THIS PROGRAM IS DEPRECATED ***
This program is only provided for compatibility and will be removed in a future release. Please use avconv instead.
[ogg @ 0x9f22aa0] max_analyze_duration reached
Input #0, ogg, from 'out-1.ogv':
  Duration: 00:01:55.73, start: 0.000000, bitrate: 537 kb/s
    Stream #0.0: Data: skeleton
    Stream #0.1: Video: theora, yuv420p, 1600x896 [PAR 1:1 DAR 25:14], 15 fps, 15 tbr, 15 tbn, 15 tbc
    Stream #0.2: Audio: vorbis, 22050 Hz, mono, s16, 89 kb/s
File 'tmux.mov' already exists. Overwrite ? [y/N] y
[buffer @ 0x9f23060] w:1600 h:896 pixfmt:yuv420p
[aac @ 0xa196940] Too many bits per frame requested
Output #0, mov, to 'tmux.mov':
    Stream #0.0: Video: mpeg4, yuv420p, 1600x896 [PAR 1:1 DAR 25:14], q=2-31, 200 kb/s, 90k tbn, 15 tbc
    Stream #0.1: Audio: aac, 22050 Hz, mono, s16, 200 kb/s
Stream mapping:
  Stream #0.1 -> #0.0
  Stream #0.2 -> #0.1
Error while opening encoder for output stream #0.1 - maybe incorrect parameters such as bit_rate, rate, width or height

#18 楼 @feitian124 我也用 ffmpeg 试着把 ogv 转出成 mov,出来的质量损失太大了。

只要你的 ogv 本身够好就可以了,传过来我帮你转码。

上传到你的 dropbox,给我个链接就好了。辛苦,非常感谢!

@happypeter https://www.dropbox.com/s/vya8fxiye04l9j6/tmux_basics.ogv 不好意思哦,拖了这么久 第一次录视频,录了好几个,最满意这一个,但不知道啥原因中间有一段 5-6 秒被录制软件跳过了, 连贯性欠缺一点但是影响应该不大,你看看行不。

我没有遇到类似问题,但是遇到这么个问题,当我修改了_config.yml 以后,写博客或改主题,再也无法 rake generate 了,报错如下 alt text 问题,找到了,原因是_config.yml 配置出了问题,就是:后面没有空格. 突然看到这个帖子,就拿出来试试,前几天纠结的问题一下就解决了,谢谢 peter 大师兄~~

#22 楼 @small_fish__ 有时侯细节问题,也很让人挠头。所以大家如果遇到了就要贴出来跟大家分享一下。谢谢

谢谢 Happypeter,辛苦了

#24 楼 @bugreg 有大家的鼓励,不辛苦 :-)

#20 楼 @feitian124 视频清晰度和音质都很好,不过要命的是显示比例不是 4x3 的,所以肯定要重作才能发。我们现在有两个选择:

  1. 我帮你重新做一遍,当然视频中我会指明你是原作者
  2. 如果你自己想重来一次也可以,不过我还会有一些新的建议,做之前联系我吧

哈哈,不好意思

#20 楼 @feitian124 看了下,感觉内容少了点,有几个 killing feature,像关键字监视,窗口活动状态监视之类的没提到,然后字体也许偏小了转格式成 1024×768 以后可能看不清吧……其实你可以用 XVidCap 直接录 mov 格式的

至于配置嘛,内容真的少了点,嗯,偷偷的 show 一个自己的配置 https://github.com/aptx4869/tmux-config-example

#27 楼 @aptx4869 谢谢分享,我也是觉的视频内容可以再尽量丰富一些。我的 tumx 经验也还不足,再给些指导吧,plz....

@happypeter 应该是我不好意思哈,拖了这么久还是出了个次品,呵呵

其实我也没用多久 tmux 哦,session, window, pane 差不多就是我 90% 的日常使用了,个人感觉也基本够用了,不过我知道肯定还有很多 feature 待发掘,所以我写了个 tmux_basic。。。

我用的 ubuntu 12, 录像软件recordMyDesktop,显示按键的软件keyMon。 重做我没问题,只是不知道咋录 4X3 的,然后转码也搞不定,还是要麻烦你。我也占了这么久的茅坑了, 再等我慢慢去研究也不合适哈,早点出有需要的朋友就可以看了。

所以 @happypeter 尽管出,原作者也不用了哈,我已经收获了不少。 @aptx4869 有兴趣不妨出个高级版本,很期待哦

#29 楼 @feitian124 好,那我就最近几周重做一下发布吧,如果你不介意的话,我会在视频中用你的博客作为你的身份。能得到别人的贡献,也是 happycasts.net 的荣幸啊

@happypeter 谢谢,你太客气了。如果因此能多点人认识我,那也不错哦。 以后有需要尽管吩咐 ^_^

@happypeter 有些天没有检查邮件了 大家好,这周由于回家收玉米耽误了四天,所以视频出不来了,sooorry,下周见! 看到这样的邮件很亲切,会干农活的软件工程师。。

#32 楼 @feitian124 正在整理 tmux 资料呢,明天估计视频就会出来了 :-)

需要 登录 后方可回复, 如果你还没有账号请 注册新账号